#TITLE:Ice Cream;
#SUBTITLE:Expi3nze;
#ARTIST:Hyun A;
#TITLETRANSLIT:;
#SUBTITLETRANSLIT:;
#ARTISTTRANSLIT:;
#CREDIT:;
#BANNER:bn.png;
#BACKGROUND:bg.png;
#LYRICSPATH:;
#CDTITLE:cdtitle.png;
#MUSIC:Ice Cream.mp3;
#OFFSET:-0.240;
#SAMPLESTART:64.229;
#SAMPLELENGTH:15.997;
#SELECTABLE:YES;
#BPMS:0.000=120.022,2.000=120.016,3.000=120.022,5.000=120.016,6.000=120.022,8.000=120.016,9.000=120.022,11.000=120.016,12.000=120.022,14.000=120.016,15.000=120.022,17.000=120.016,18.000=120.022,20.000=120.016,21.000=120.022,23.000=120.016,24.000=120.022,26.000=120.016,27.000=120.022,28.000=240.044,30.000=120.022,32.000=60.012,32.333=240.065,33.000=120.022,36.000=120.016,37.000=120.022,39.000=120.016,40.000=120.022,42.000=120.016,43.000=120.022,45.000=60.012,45.333=240.065,46.000=60.012,46.333=240.065,47.000=60.012,47.333=240.065,48.000=60.012,48.333=240.065,49.000=120.022,52.000=120.016,53.000=120.022,55.000=120.016,56.000=120.022,58.000=120.016,59.000=120.022,61.000=60.012,61.333=240.065,62.000=60.012,62.333=240.065,63.000=60.012,63.333=240.065,64.000=60.012,64.333=240.065,65.000=120.022,68.000=120.016,69.000=120.022,71.000=120.016,72.000=120.022,74.000=120.016,75.000=120.022,77.000=120.016,78.000=120.022,80.000=120.016,81.000=120.022,83.000=120.016,84.000=120.022,86.000=120.016,87.000=120.022,89.000=120.016,90.000=120.022,92.000=120.016,93.000=120.022,95.000=120.016,96.000=120.022,98.000=120.016,99.000=120.022,101.000=120.016,102.000=120.022,104.000=120.016,105.000=120.022,107.000=120.016,108.000=120.022,111.000=120.016,112.000=120.022,114.000=120.016,115.000=120.022,117.000=120.016,118.000=120.022,120.000=120.016,121.000=120.022,123.000=120.016,124.000=120.022,126.000=120.016,127.000=120.022,128.000=240.044,130.000=120.022,133.000=120.016,134.000=120.022,136.000=120.016,137.000=120.022,139.000=120.016,140.000=120.022,142.000=60.012,142.333=240.065,143.000=60.012,143.333=240.065,144.000=60.012,144.333=240.065,145.000=60.012,145.333=240.065,146.000=120.022,149.000=120.016,150.000=120.022,152.000=120.016,153.000=120.022,155.000=120.016,156.000=120.022,158.000=60.012,158.333=240.065,159.000=60.012,159.333=240.065,160.000=60.012,160.333=240.065,161.000=60.012,161.333=240.065,162.000=120.022,165.000=120.016,166.000=120.022,168.000=120.016,169.000=120.022,171.000=120.016,172.000=120.022,174.000=120.016,175.000=120.022,177.000=120.016,178.000=120.022,180.000=120.016,181.000=120.022,183.000=120.016,184.000=120.022,186.000=120.016,187.000=120.022,189.000=120.016,190.000=240.044,196.000=240.022,197.000=240.044,198.000=120.022,201.000=120.016,202.000=120.022,204.000=120.016,205.000=120.022,207.000=120.016,208.000=120.022,210.000=120.016,211.000=120.022,213.000=120.016,214.000=120.022,216.000=120.016,217.000=120.022,219.000=120.016,220.000=120.022,222.000=120.016,223.000=120.022,225.000=120.016,226.000=240.044,228.000=120.022,230.000=60.012,230.333=240.065,231.000=120.022,234.000=120.016,235.000=120.022,237.000=120.016,238.000=120.022,240.000=120.016,241.000=120.022,243.000=60.012,243.333=240.065,244.000=60.012,244.333=240.065,245.000=60.012,245.333=240.065,246.000=60.012,246.333=240.065,247.000=120.022,250.000=120.016,251.000=120.022,253.000=120.016,254.000=120.022,256.000=120.016,257.000=120.022,259.000=60.012,259.333=240.065,260.000=60.012,260.333=240.065,261.000=60.012,261.333=240.065,262.000=60.012,262.333=240.065,263.000=120.022,266.000=120.016,267.000=120.022,269.000=120.016;
#STOPS:;
#BGCHANGES:;
// cache tags:
#FIRSTBEAT:0.000;
#LASTBEAT:268.000;
#SONGFILENAME:Songs/SDO/Ice Cream (Hyun A)/Ice Cream.sm;
#HASMUSIC:1;
#HASBANNER:1;
#MUSICLENGTH:131.843;
// end cache tags

//---------------dance-single - ----------------
#NOTES:
     dance-single:
     :
     Hard:
     14:
     0.874,0.813,1.000,1.000,0.159,449.000,168.000,188.000,0.000,122.000:
0010
0000
0000
0100
0011
0000
0100
0000
0001
0000
1100
0001
1100
0000
0010
0000
,
1000
0000
0000
0010
0101
0000
0000
0000
0010
0000
0010
0000
0101
0000
0010
0000
,
1000
0000
0000
0010
1100
0000
0001
0010
0100
0000
0000
0000
0101
0000
0100
0000
,
0100
0000
0000
0001
0110
0000
0100
0000
0002
0000
1000
0000
1100
0000
0000
0000
,
1103
0000
1010
1010
0001
1010
0011
1001
,
0101
0001
1100
1100
0001
1100
1100
0000
,
0111
0000
0101
0101
0001
1100
1102
2000
,
3023
0030
0000
0000
,
2020
0000
0000
0000
3132
0000
0010
1000
1103
0000
1000
0000
0020
0000
0002
0000
,
0233
0000
1301
0001
1001
1010
1020
0002
,
2133
0000
0000
0000
3102
0000
0010
1000
1103
0000
1000
0000
2020
0000
0000
0000
,
3032
2203
0020
0302
,
0230
0000
0000
0000
3323
0000
0001
0100
1031
0000
0001
0000
2000
0000
0020
0000
,
3032
0000
1103
0001
1001
1100
2100
0002
,
3213
0000
0000
0000
0320
0000
0001
0100
1031
0000
0001
0000
2020
0000
0000
0000
,
3032
2203
0020
0302
,
0230
0000
0000
0000
3313
0000
0010
0000
0101
0000
0010
0100
0010
0000
1100
0000
,
1001
1010
1010
1000
0011
1000
0001
1100
,
1100
0000
0001
0100
1001
0100
0010
0000
1010
0000
1001
0000
0101
0000
0001
0000
,
1100
0001
2000
0000
3210
0000
0320
0002
,
0233
0000
2000
0001
3310
0000
0001
0000
1100
0000
0010
0000
0001
0000
1000
0000
,
0100
0000
1010
0000
1010
0000
0001
0010
1100
0001
0010
0000
0001
0000
1000
0000
,
1010
0000
1001
0000
0011
1000
0100
0010
1001
0000
1000
0000
1002
0000
0000
0000
,
1103
1100
2000
0000
3201
0000
0302
0020
,
0233
0020
2331
0001
0011
3100
0001
1100
,
1200
0000
1302
1000
1100
0013
1000
1010
,
1020
0000
0000
0000
2030
0000
0010
0100
0010
0000
3010
0000
1100
0000
1001
0000
,
1001
0001
2000
0000
3201
0000
0302
0020
,
2033
0000
0200
0000
3312
0000
0010
0000
1000
0000
1003
0010
0100
0000
1000
0000
,
0011
0000
0010
0001
0020
0000
1000
0000
1000
0000
0130
1000
0010
0000
1000
0000
,
0011
0100
2001
0001
0011
3100
0010
0001
,
1010
1010
2010
0000
3020
0000
0032
0200
,
0303
0000
0000
0000
0000
0000
0000
0000
0102
0000
0010
1000
1103
0000
1000
0000
,
0020
0002
0233
0000
1301
0001
1001
1010
,
1020
0000
0002
0000
2133
0000
0000
0000
3102
0000
0010
1000
1103
0000
1000
0000
,
2020
3032
2203
0020
,
0302
0000
0000
0000
0230
0000
0000
0000
3323
0000
0001
0100
1031
0000
0001
0000
,
2000
0020
3032
0000
1103
0001
1001
1100
,
2100
0000
0002
0000
3213
0000
0000
0000
0320
0000
0001
0100
1031
0000
0001
0000
,
2020
3032
2203
0020
,
0302
0000
0000
0000
0230
0000
0000
0000
3313
0000
0010
0100
1000
0010
0000
0000
,
0020
0000
0002
0000
1233
0000
0000
0000
0301
0000
0010
0001
1100
0010
0000
0000
,
2000
0000
0200
0000
3321
0000
0000
0000
1030
0000
0100
0000
1001
0010
0100
0000
,
1010
1010
2010
0000
3020
2000
0032
3200
,
0023
0000
0300
0000
1032
1000
1000
0000
1013
0000
0000
1000
0011
0100
0001
0000
,
0002
0000
0020
0000
1133
0000
0000
0000
0200
0000
0000
0000
0010
0000
0001
0010
,
0000
0011
0021
0000
2332
0000
0200
0000
,
3020
0000
2300
0030
3223
0000
0000
0000
,
2302
0000
0233
0000
,
3322
0000
0000
0000
2233
0000
0311
0020
,
3000
0000
1030
0100
0011
0000
0100
0000
0002
0000
1000
0000
1010
0000
2003
0000
,
0010
0000
3010
0001
1100
0000
0001
0000
2200
0000
0000
0000
0311
0000
3002
0000
,
0000
1003
0011
1000
0020
0000
2031
0000
,
3200
0020
2331
0020
3032
0000
1010
2003
,
0000
0000
3010
0001
1100
0000
0010
0000
2000
0000
0010
0000
0011
0000
3020
0000
,
0232
1300
1103
0001
2000
0001
0011
3100
,
0001
1000
1010
0000
2020
0000
3030
0000
,
0000
0000
0000
0000
0000
0000
0000
0000
2020
0000
0000
0000
3132
0000
0010
1000
,
1103
1000
0020
0002
0233
0000
1301
0001
,
1001
0000
1010
0000
1020
0000
0002
0000
2133
0000
0000
0000
3102
0000
0010
1000
,
1103
1000
2020
0000
3032
0000
2203
0000
,
0020
0000
0000
0000
0302
0000
0000
0000
0230
0000
0000
0000
3323
0000
0001
0100
,
1031
0001
2000
0020
3032
0000
1103
0001
,
1001
0000
1100
0000
2100
0000
0002
0000
3213
0000
0000
0000
0320
0000
0001
0100
,
1031
0001
2020
0000
3032
0000
2203
0000
,
0020
0000
0302
0000
0230
0000
3313
0010
,
1000
0001
1000
0000
0200
0000
0000
0000
,
0300
0000
0000
0000
,
0000
0000
0000
0000
,
0000
0000
0000
0000
,
0000
0000
0000
0000
,
0000
0000
0000
0000
,
0000
0000
0000
0000
,
0000
0000
0000
0000
,
0000
0000
0000
0000
;
